VA - Cicada - Cicada (Limited Edition) 2007 download free
VA - Cicada - Cicada (Limited Edition) 2007


Format: mp3, flac
Artist: VA
Title Of Album: Cicada - Cicada (Limited Edition)
Year Of Release: 2006-2007
Label: Critical Mass Records
Genre: Pop, House, Electro, Synth-pop
Quality: Flac (Image+Cue+Log+Covers)/mp3
Bitrate: Lossless/320kbps
Total Time: CD1-66:03min,CD2-53:57min
Total Size: 763Mb/289Mb(+5%rec)

Tracklist
CD 1:

01. Edge
02. You Got Me Feeling
03. The Things You Say
04. All About You
05. Cicadas
06. Beautiful (Electric Blue)
07. Tricks
08. Cut Right Through
09. Reprise
10. I'm Waiting
11. Harmonic
12. Can't Be Doin' With Love
Exact Audio Copy V0.99 prebeta 4 from 23. January 2008
EAC extraction logfile from 20. June 2010, 11:36
Cicada / Cicada - Limited Edition (CD1)
Used drive : PIONEER DVD-RW DVR-112D Adapter: 1 ID: 0
Read mode : Secure
Utilize accurate stream : Yes
Defeat audio cache : Yes
Make use of C2 pointers : No
Read offset correction : 48
Overread into Lead-In and Lead-Out : No
Fill up missing offset samples with silence : Yes
Delete leading and trailing silent blocks : No
Null samples used in CRC calculations : Yes
Used interface : Installed external ASPI interface
Used output format : User Defined Encoder
Selected bitrate : 192 kBit/s
Quality : Low
Add ID3 tag : Yes
Command line compressor : C:Program FilesE A C AudioFlacflac.exe
Additional command line options : -8 -V %s
TOC of the extracted CD
Track | Start | Length | Start sector | End sector
---------------------------------------------------------
1 | 0:00.00 | 5:37.70 | 0 | 25344
2 | 5:37.70 | 5:43.34 | 25345 | 51103
3 | 11:21.29 | 5:05.40 | 51104 | 74018
4 | 16:26.69 | 6:23.68 | 74019 | 102811
5 | 22:50.62 | 4:21.36 | 102812 | 122422
6 | 27:12.23 | 7:17.09 | 122423 | 155206
7 | 34:29.32 | 4:55.01 | 155207 | 177332
8 | 39:24.33 | 5:27.58 | 177333 | 201915
9 | 44:52.16 | 4:09.51 | 201916 | 220641
10 | 49:01.67 | 5:48.74 | 220642 | 246815
11 | 54:50.66 | 4:17.10 | 246816 | 266100
12 | 59:08.01 | 6:55.00 | 266101 | 297225
Range status and errors
Selected range
Filename E:Cicada - Cicada (Limited Edition)Cicada - Cicada - Limited Edition (CD1).wav
Peak level 93.3 %
Range quality 99.9 %
Test CRC B3E4CA1E
Copy CRC B3E4CA1E
Copy OK
No errors occurred

AccurateRip summary

Track 1 accurately ripped (confidence 7) [129BA239]
Track 2 accurately ripped (confidence 7) [B3D58BB7]
Track 3 accurately ripped (confidence 7) [8CC9A9BD]
Track 4 accurately ripped (confidence 7) [FD252842]
Track 5 accurately ripped (confidence 7) [3A8C9243]
Track 6 accurately ripped (confidence 7) [4D32CB57]
Track 7 accurately ripped (confidence 7) [332C057D]
Track 8 accurately ripped (confidence 7) [F9BFF441]
Track 9 accurately ripped (confidence 7) [2ED69D68]
Track 10 accurately ripped (confidence 7) [E52680C6]
Track 11 accurately ripped (confidence 6) [2DF7B2D4]
Track 12 accurately ripped (confidence 5) [CCD74446]

All tracks accurately ripped
End of status report
Tracklist
CD 2:

01. The Things You Say (Dirty South Remix)
02. Beautiful (Eletric Blue) (Michael Gray Remix)
03. You Got Me Feeling (Coburn Remix)
04. Let Me See You
05. The Things You Say (Mr Miyagi Remix)
06. Cut Right Through (DJ Delicious Remix)
07. You Got Me Feeling (Cicada Remix)
08. Same Old Scene
Exact Audio Copy V0.99 prebeta 4 from 23. January 2008
EAC extraction logfile from 20. June 2010, 12:05
Cicada / Cicada - Limited Edition (CD2)
Used drive : PIONEER DVD-RW DVR-112D Adapter: 1 ID: 0
Read mode : Secure
Utilize accurate stream : Yes
Defeat audio cache : Yes
Make use of C2 pointers : No
Read offset correction : 48
Overread into Lead-In and Lead-Out : No
Fill up missing offset samples with silence : Yes
Delete leading and trailing silent blocks : No
Null samples used in CRC calculations : Yes
Used interface : Installed external ASPI interface
Used output format : User Defined Encoder
Selected bitrate : 192 kBit/s
Quality : Low
Add ID3 tag : Yes
Command line compressor : C:Program FilesE A C AudioFlacflac.exe
Additional command line options : -8 -V %s
TOC of the extracted CD
Track | Start | Length | Start sector | End sector
---------------------------------------------------------
1 | 0:00.00 | 7:54.68 | 0 | 35617
2 | 7:54.68 | 7:30.09 | 35618 | 69376
3 | 15:25.02 | 6:24.72 | 69377 | 98248
4 | 21:49.74 | 7:49.63 | 98249 | 133486
5 | 29:39.62 | 5:37.45 | 133487 | 158806
6 | 35:17.32 | 7:59.52 | 158807 | 194783
7 | 43:17.09 | 7:00.51 | 194784 | 226334
8 | 50:17.60 | 3:39.05 | 226335 | 242764
Range status and errors
Selected range
Filename E:Cicada - Cicada (Limited Edition)Cicada - Cicada - Limited Edition (CD2).wav
Peak level 100.0 %
Range quality 99.9 %
Test CRC EBBAB537
Copy CRC EBBAB537
Copy OK
No errors occurred

AccurateRip summary

Track 1 accurately ripped (confidence 3) [23E51425]
Track 2 accurately ripped (confidence 3) [FEE85BDE]
Track 3 accurately ripped (confidence 3) [BC67E8D9]
Track 4 accurately ripped (confidence 3) [A9263282]
Track 5 accurately ripped (confidence 3) [D07AF078]
Track 6 accurately ripped (confidence 3) [D6B5D223]
Track 7 accurately ripped (confidence 3) [C4B59B5B]
Track 8 accurately ripped (confidence 3) [30A197D0]

All tracks accurately ripped
End of status report
Британский проект Cicada уверяет, что их выступления даже больше вставляют рок-kids, чем электронную публику. Трио возникло несколько лет назад и состоит из пары сочиняющих музыку парней и исландской девушки с труднопроизносимым именем Хейдрун Анна Бьорнсдоттир, которая прыгает на сцене с микрофоном, что раньше у нее неплохо получалось в составе Gus Gus. Музыка проекта Cicada — это смесь 80-х и 2000-х.
Download CD1 Lossless
Uploaded Links: | |
Hotfile Links: | |
Rapidshare Links: | |
Download CD1 MP3
| |
Download CD2 Lossless
Uploaded Links: |
Hotfile Links: |
Rapidshare Links: |
Download CD2 MP3
| |
Download Scans



Slow speed links

part1 part2 part3 part1 part2 part3 part1 part2 part3 Hotfile Uploaded Rapidshare part1 part2 part1 part2 part1 part2 Hotfile Uploaded Rapidshare Uploaded